Торрент видеокурс печи своими руками


Торрент видеокурс печи своими руками

X

С. Степанов | Электрика в квaртире и доме своими руками + Видеокурс (2010) [DJVU, AVI] Автор: С. Степанов
Издательство: Эксмо
Серия: Ремонт от А до Я
ISBN: 978-5-699-41044
Жанр: Электроника
Формат: DJVU
Качество: OCR с ошибками
Иллюстрации: Чёрно-белые
Страниц: 192

Описание:
Много разных работ по дому можно и нужно делать своими руками. Электрика не исключение. Но любые работы, связанные с электротехническим оборудованием дома или квартиры, крайне ответственны и не каждый возьмется осуществить их самостоятельно. И тем не менее многие операции доступны даже дилетантам: заменить розетки или выключатели, найти причину неисправности в сети, установить точечные светильники в подвесном потолке - все это вам под силу, и ни к чему звать на помощь электрика.

Прилагаемый к книге видеокурс обучит вас всему, что нужно знать домашнему мастеру. Профессиональные электрики покажут вам на практике решение наиболее распространенных проблем: монтаж и прокладку провордки, установкурозеток и светильников и многое другое. Любые работы, связанные с электротехническим оборудованием дома или квартиры, крайне ответственны, и не каждый возьмется осуществить их самостоятельно. И тем не менее многие операции доступны даже дилетантам: заменить розетки или выключатели, найти причину неисправности в сети, установить точечные светильники в подвесном потолке - все это вам под силу, и ни к чему звать на помощь электрика. Чуть больше навыков и знаний потребуется для того, чтобы электрифицировать дом и квартиру. И здесь наше издание опять придет вам на помощь. Эта книга обучит вас всему, что нужно знать домашнему мастеру. Профессиональные электрики покажут вам на практике решение наиболее распространенных проблем: монтаж и прокладка проводки, установка розеток и светильников и многое другое.

Продолжительность: 00:41:36
Качество видео: DVDRip

Видеокодек: Xvid
Битрейт видео: 1248 kbps
Размер кадра: 720х576
Аудиокодек: MP3 2 ch
Битрейт аудио: 96 kbps

Скриншоты:
Код:

Общее
Полное имя                               : C:\Users\Администратор\Downloads\Электрика в квaртире и доме своими руками\Электрика в квaртире и доме своими руками.avi
Формат                                   : AVI
Формат/Информация                        : Audio Video Interleave
Размер файла                             : 403 Мбайт
Продолжительность                        : 41 м.
Общий поток                              : 1353 Кбит/сек
Библиотека кодирования                   : VirtualDub build 30586/release

Видео
Идентификатор                            : 0
Формат                                   : MPEG-4 Visual
Профиль формата                          : Advanced Simple@L5
Параметр BVOP формата                    : 2
Параметр QPel формата                    : Нет
Параметр GMC формата                     : Без точки перехода
Параметр матрицы формата                 : Default (H.263)
Режим смешивания                         : Сжатый битовый поток
Идентификатор кодека                     : XVID
Идентификатор кодека/Подсказка           : XviD
Продолжительность                        : 41 м.
Битрейт                                  : 1248 Кбит/сек
Ширина                                   : 720 пикселей
Высота                                   : 576 пикселей
Соотношение сторон                       : 5:4
Частота кадров                           : 25,000 кадров/сек
Стандарт вещания                         : PAL
Цветовое пространство                    : YUV
Субдискретизация насыщенности            : 4:2:0
Битовая глубина                          : 8 бит
Тип развёртки                            : Прогрессивная
Метод сжатия                             : С потерями
Бит/(ПикселиКадры)                      : 0.120
Размер потока                            : 371 Мбайт (92%)
Библиотека кодирования                   : XviD 64

Аудио
Идентификатор                            : 1
Формат                                   : MPEG Audio
Версия формата                           : Version 1
Профиль формата                          : Layer 3
Режим                                    : Joint stereo
Расширение режима                        : MS Stereo
Идентификатор кодека                     : 55
Идентификатор кодека/Подсказка           : MP3
Продолжительность                        : 41 м.
Вид битрейта                             : Постоянный
Битрейт                                  : 96,0 Кбит/сек
Каналы                                   : 2 канала
Частота                                  : 44,1 КГц
Метод сжатия                             : С потерями
Размер потока                            : 28,5 Мбайт (7%)
Выравнивание                             : Разделение по промежуткам
Продолжительность промежутка             : 40  мс. (1,00 видеокадр)
Время предзагрузки промежутка            : 500  мс.

Скриншоты:

Время раздачи: 9.00 - 23.00 (UTC+02:00) (по мере возможности...)


X

Торрент видеокурс печи своими руками

Торрент видеокурс печи своими руками

Торрент видеокурс печи своими руками

Торрент видеокурс печи своими руками

Торрент видеокурс печи своими руками

Торрент видеокурс печи своими руками

Торрент видеокурс печи своими руками

Рекомендуем почитать:

Ремонт ротора стартера своими руками видео

Красивая открытка с 8 марта маме своими руками

Украшение арки для свадьбы своими руками

Ремонт принтера hp photosmart своими руками

Как сделать вай фай своими руками в домашних условиях видео